Загрузись
HD контентом!
18+ Добавлен: 4-01-2012, 02:40 Автор: sergej10

Miss Braces - Britney Pinstripe Lingerie (2012) HDTV 720p

Miss Braces - Britney Pinstripe Lingerie (2012) HDTV 720p



Duration: 00:14:48.14, start: 3.000000, bitrate: 5033 kb/s
Stream #0.0(eng): Audio: wmav2, 48000 Hz, 2 channels, s16, 192 kb/s
Stream #0.1(eng): Video: wmv3, yuv420p, 1280x720, 4840 kb/s, 23.98 tbr, 1k tbn, 1k tbc
Miss Braces - Britney Pinstripe Lingerie (2012) HDTV 720p



Miss Braces - Britney Pinstripe Lingerie (2012) HDTV 720p

Смотреть ВСЕ МОИ РАЗДАЧИ
Miss Braces - Britney Pinstripe Lingerie (2012) HDTV 720p


Загрузил: sergej10 (3 января 2012 18:40)
Управление: [обновить]
Взяли: 631 | Размер: 532.98 Mb | Последняя активность: 18 июня 2021 21:48
Раздают: 0 Качают: 0 Скачали: 124
Список файлов




Комментарии 0


Информация
Посетители, находящиеся в группе Гости, не могут оставлять комментарии к данной публикации.