Загрузись
HD контентом!
18+ Добавлен: 4-01-2012, 02:56 Автор: sergej10

Nubiles - Alisa Cage Tub Fun (2012) HDTV 720p

Nubiles - Alisa Cage Tub Fun (2012) HDTV 720p

Video info
Duration: 00:10:56.64, start: 3.000000, bitrate: 3640 kb/s
Stream #0.0(eng): Audio: wmav2, 48000 Hz, 2 channels, s16, 128 kb/s
Stream #0.1(eng): Video: wmv3, yuv420p, 1280x720, 3500 kb/s, 25 tbr, 1k tbn, 1k tbc
Nubiles - Alisa Cage Tub Fun (2012) HDTV 720p


Nubiles - Alisa Cage Tub Fun (2012) HDTV 720p

Смотреть ВСЕ МОИ РАЗДАЧИ
Nubiles - Alisa Cage Tub Fun (2012) HDTV 720p


Загрузил: sergej10 (3 января 2012 18:56)
Управление: [обновить]
Взяли: 605 | Размер: 285 Mb | Последняя активность: 5 июня 2021 20:45
Раздают: 0 Качают: 0 Скачали: 102
Список файлов




Комментарии 0


Информация
Посетители, находящиеся в группе Гости, не могут оставлять комментарии к данной публикации.