Загрузись
HD контентом!
18+ Добавлен: 4-01-2012, 03:07 Автор: sergej10

Ebbi Pink Panties (2012) HDTV 720p

Ebbi Pink Panties (2012) HDTV 720p

Имя актрисы: Ebbi
Дата релиза: 01.01.2012
Продолжительность: 00:17:59
Жанр: solo, masturbation
Video info
Duration: 00:17:59.89, start: 3.000000, bitrate: 3634 kb/s
Stream #0.0(eng): Audio: wmav2, 48000 Hz, 2 channels, s16, 128 kb/s
Stream #0.1(eng): Video: wmv3, yuv420p, 1280x720, 3500 kb/s, 29.97 tbr, 1k tbn, 1k tbc
Ebbi Pink Panties (2012) HDTV 720p


Ebbi Pink Panties (2012) HDTV 720p

Смотреть ВСЕ МОИ РАЗДАЧИ
Ebbi Pink Panties (2012) HDTV 720p


Загрузил: sergej10 (3 января 2012 19:07)
Управление: [обновить]
Взяли: 1424 | Размер: 467.85 Mb | Последняя активность: 15 июня 2021 01:04
Раздают: 0 Качают: 1 Скачали: 286
Список файлов




Комментарии 0


Информация
Посетители, находящиеся в группе Гости, не могут оставлять комментарии к данной публикации.