Загрузись
HD контентом!
18+ Добавлен: 4-01-2012, 03:20 Автор: sergej10

Camel Night (2011) HDTV 720p

Camel Night (2011) HDTV 720p



Video info
Duration: 00:06:00.93, start: 3.000000, bitrate: 3010 kb/s
Stream #0.0: Audio: wmav2, 44100 Hz, 2 channels, s16, 160 kb/s
Stream #0.1: Video: wmv3, yuv420p, 1280x720, 2840 kb/s, PAR 1:1 DAR 16:9, 29.97 tbr, 1k tbn, 1k tbc


Camel Night (2011) HDTV 720p


Camel Night (2011) HDTV 720p

Смотреть ВСЕ МОИ РАЗДАЧИ
Camel Night (2011) HDTV 720p


Загрузил: sergej10 (3 января 2012 19:20)
Управление: [обновить]
Взяли: 555 | Размер: 129.54 Mb | Последняя активность: 24 мая 2020 10:34
Раздают: 0 Качают: 0 Скачали: 261
Список файлов




Комментарии 0


Информация
Посетители, находящиеся в группе Гости, не могут оставлять комментарии к данной публикации.