Загрузись
HD контентом!
18+ Добавлен: 4-01-2012, 03:44 Автор: sergej10

Jade S Intimate Moments (2011) HDTV 720p

Jade S Intimate Moments (2011) HDTV 720p


Video info
Duration: 00:09:41.72, start: 0.000000, bitrate: 5159 kb/s
Stream #0.0(eng): Video: h264, yuv420p, 1280x720 [PAR 1:1 DAR 16:9], 4998 kb/s, 25 fps, 25 tbr, 25k tbn, 50 tbc
Stream #0.1(eng): Audio: aac, 48000 Hz, stereo, s16, 157 kb/s

Jade S Intimate Moments (2011) HDTV 720p

Jade S Intimate Moments (2011) HDTV 720p

Смотреть ВСЕ МОИ РАЗДАЧИ
Jade S Intimate Moments (2011) HDTV 720p


Загрузил: sergej10 (3 января 2012 19:44)
Управление: [обновить]
Взяли: 598 | Размер: 357.81 Mb | Последняя активность: 9 июня 2021 23:25
Раздают: 0 Качают: 0 Скачали: 146
Список файлов




Комментарии 0


Информация
Посетители, находящиеся в группе Гости, не могут оставлять комментарии к данной публикации.