Загрузись
HD контентом!
18+ Добавлен: 4-01-2012, 04:02 Автор: sergej10

Britney School Girl (2012) HDTV 720p

Britney School Girl (2012) HDTV 720p

Video info
Duration: 00:07:55.81, start: 3.000000, bitrate: 4981 kb/s
Stream #0.0(eng): Audio: wmav2, 48000 Hz, 2 channels, s16, 192 kb/s
Stream #0.1(eng): Video: wmv3, yuv420p, 1280x720, 4840 kb/s, 23.98 tbr, 1k tbn, 1k tbc
Britney School Girl (2012) HDTV 720p

Britney School Girl (2012) HDTV 720p

Смотреть ВСЕ МОИ РАЗДАЧИ
Britney School Girl (2012) HDTV 720p


Загрузил: sergej10 (3 января 2012 20:02)
Управление: [обновить]
Взяли: 1147 | Размер: 282.55 Mb | Последняя активность: 14 июня 2021 20:23
Раздают: 0 Качают: 0 Скачали: 261
Список файлов




Комментарии 0


Информация
Посетители, находящиеся в группе Гости, не могут оставлять комментарии к данной публикации.