Загрузись
HD контентом!
18+ Добавлен: 4-01-2012, 04:12 Автор: sergej10

Young Busty - Ruby (2012) HDTV 720p

Young Busty - Ruby (2012) HDTV 720p


Video info
Duration: 00:26:03.40, start: 5.000000, bitrate: 5190 kb/s
Stream #0.0: Video: wmv3, yuv420p, 1280x720, 5000 kb/s, 25 tbr, 1k tbn, 1k tbc
Stream #0.1: Audio: wmav2, 44100 Hz, 2 channels, s16, 128 kb/s
Young Busty - Ruby (2012) HDTV 720p

Young Busty - Ruby (2012) HDTV 720p

Смотреть ВСЕ МОИ РАЗДАЧИ
Young Busty - Ruby (2012) HDTV 720p


Загрузил: sergej10 (3 января 2012 20:11)
Управление: [обновить]
Взяли: 0 | Размер: 0 b | Последняя активность: не наблюдалась
Раздают: 0 Качают: 0 Скачали: 0
Список файлов




Комментарии 0


Информация
Посетители, находящиеся в группе Гости, не могут оставлять комментарии к данной публикации.