Загрузись
HD контентом!
18+ Добавлен: 4-01-2012, 11:52 Автор: sergej10

Malena Morgan Paisley Bed (2011) HDTV 720p

Malena Morgan Paisley Bed (2011) HDTV 720p


Video info
Duration: 00:08:19.66, start: 5.000000, bitrate: 8099 kb/s
Stream #0.0(eng): Audio: wmav2, 48000 Hz, 2 channels, s16, 96 kb/s
Stream #0.1(eng): Video: wmv3, yuv420p, 1280x720, 7990 kb/s, 29.97 tbr, 1k tbn, 1k tbc
Malena Morgan Paisley Bed (2011) HDTV 720p


Malena Morgan Paisley Bed (2011) HDTV 720p

Смотреть ВСЕ МОИ РАЗДАЧИ
Malena Morgan Paisley Bed (2011) HDTV 720p


Загрузил: sergej10 (4 января 2012 03:52)
Управление: [обновить]
Взяли: 1804 | Размер: 482.43 Mb | Последняя активность: 13 мая 2021 13:54
Раздают: 0 Качают: 0 Скачали: 1048
Список файлов




Комментарии 0


Информация
Посетители, находящиеся в группе Гости, не могут оставлять комментарии к данной публикации.