Загрузись
HD контентом!
18+ Добавлен: 4-01-2012, 12:02 Автор: sergej10

Ebbi Sexy Shorts (2011) HDTV 720p

Ebbi Sexy Shorts (2011) HDTV 720p

Video info
Duration: 00:18:53.09, start: 3.000000, bitrate: 3634 kb/s
Stream #0.0(eng): Audio: wmav2, 48000 Hz, 2 channels, s16, 128 kb/s
Stream #0.1(eng): Video: wmv3, yuv420p, 1280x720, 3500 kb/s, 29.97 tbr, 1k tbn, 1k tbc
Ebbi Sexy Shorts (2011) HDTV 720p


Ebbi Sexy Shorts (2011) HDTV 720p

Смотреть ВСЕ МОИ РАЗДАЧИ
Ebbi Sexy Shorts (2011) HDTV 720p


Загрузил: sergej10 (4 января 2012 04:02)
Управление: [обновить]
Взяли: 1512 | Размер: 490.93 Mb | Последняя активность: 17 июня 2021 21:48
Раздают: 0 Качают: 0 Скачали: 282
Список файлов




Комментарии 0


Информация
Посетители, находящиеся в группе Гости, не могут оставлять комментарии к данной публикации.