Загрузись
HD контентом!
18+ Добавлен: 4-01-2012, 12:09 Автор: sergej10

Elena Rae Hardcore (2012) HDTV 720p

Elena Rae Hardcore (2012) HDTV 720p Elena Rae Hardcore (2012) HDTV 720p



Video info
Duration: 00:10:22.33, start: 3.000000, bitrate: 3635 kb/s
Stream #0.0(eng): Audio: wmav2, 48000 Hz, 2 channels, s16, 128 kb/s
Stream #0.1(eng): Video: wmv3, yuv420p, 1280x720, 3500 kb/s, 25 tbr, 1k tbn, 1k tbc

Elena Rae Hardcore (2012) HDTV 720p


Elena Rae Hardcore (2012) HDTV 720p

Смотреть ВСЕ МОИ РАЗДАЧИ
Elena Rae Hardcore (2012) HDTV 720p


Загрузил: sergej10 (4 января 2012 04:09)
Управление: [обновить]
Взяли: 2484 | Размер: 269.68 Mb | Последняя активность: 22 июня 2021 23:52
Раздают: 0 Качают: 1 Скачали: 667
Список файлов




Комментарии 0


Информация
Посетители, находящиеся в группе Гости, не могут оставлять комментарии к данной публикации.