Загрузись
HD контентом!
18+ Добавлен: 4-01-2012, 12:29 Автор: sergej10

Jane Poolside Spreader (2012) HDTV 720p

Jane Poolside Spreader (2012) HDTV 720p

Video info
Duration: 00:11:57.58, start: 0.000000, bitrate: 4135 kb/s
Stream #0.0(eng): Video: h264, yuv420p, 1280x720 [PAR 1:1 DAR 16:9], 4003 kb/s, 25 fps, 25 tbr, 50 tbn, 50 tbc
Stream #0.1(und): Audio: aac, 44100 Hz, stereo, s16, 127 kb/s

Jane Poolside Spreader (2012) HDTV 720p

Jane Poolside Spreader (2012) HDTV 720p

Смотреть ВСЕ МОИ РАЗДАЧИ
Jane Poolside Spreader (2012) HDTV 720p


Загрузил: sergej10 (4 января 2012 04:28)
Управление: [обновить]
Взяли: 378 | Размер: 353.73 Mb | Последняя активность: 5 декабря 2020 21:39
Раздают: 0 Качают: 0 Скачали: 76
Список файлов




Комментарии 0


Информация
Посетители, находящиеся в группе Гости, не могут оставлять комментарии к данной публикации.